Recreator 2012 BDRip XVID AC3 HQ Hive-CM8

{ Posted: April 22nd 2013 by Serve }
0 comments
Sections: Movies > Thriller     Tags: gregory,xvid,kbps,face,before

Recreator 2012 BDRip XVID AC3 HQ Hive-CM8


When a group of teenagers stumble upon a secret lab, they become part of a deadly experiment - The Recreator - evil human clones. Craig, Tracy and Derek come face to face with exact copies of themselves that have only one purpose; to find and kill their originals. With time running out it's up to the original group to destroy the lab and save themselves before they are replaced. Gregory Orr's exciting thriller brings science fiction to life with a sexy edge.


http://www.imdb.com/title/tt1540005/


Genre: Drama | Sci-Fi | Thriller

IMDB Rating: 4.0/10 from 462 users

Directed by: Gregory Orr

Starring: Stella Maeve, Alexander Nifong and J. Mallory-McCree


Release Name: Recreator.2012.BDRip.XVID.AC3.HQ.Hive-CM8

Format: AVI

Size: 1.36 GiB

Video: XviD | 720 x 400 | 1 697 Kbps | 23.976 FPS | 16:9

Audio: English | 448 Kbps | 6 ch | AC-3

Runtime: 1h 30mn


NO PASSWORD


UPLOADED


http://uploaded.net/file/bs676rmq/Recreator.2012.BDRip.XVID.AC3.HQ.Hive-CM8.part1.rar

http://uploaded.net/file/2alu1s85/Recreator.2012.BDRip.XVID.AC3.HQ.Hive-CM8.part2.rar

Mass Effect-Paragon Lost (2012) 720p BDRip XViD AC3-LEG

{ Posted: April 21st 2013 by Serve }
0 comments
Sections: Movies     Tags: rate,xvid,720p,lost,mode

Mass Effect-Paragon Lost (2012) 720p BDRip XViD AC3-LEG


Mass Effect-Paragon Lost (2012) 720p BDRip XViD AC3-LEGi0N


http://www.imdb.com/title/tt2140141


General

Complete name : Mass Effect-Paragon Lost 2012 720p BDRip XViD AC3-LEGi0NMass.Effect.Paragon.Lost.2012.720p.BDRip.XViD.AC3.LEGi0N.avi

Format : AVI

Format/Info : Audio Video Interleave

Format profile : OpenDML

File size : 3.06 GiB

Duration : 1h 34mn

Overall bit rate : 4 638 Kbps

Writing library : VirtualDub build 32842/release


ID : 0

Format : MPEG-4 Visual

Format profile : Advanced SimpleL5

Format settings, BVOP : 2

Format settings, QPel : No

Format settings, GMC : No warppoints

Format settings, Matrix : Default (H.263)

Muxing mode : Packed bitstream

Codec ID : XVID

Codec ID/Hint : XviD

Duration : 1h 34mn

Bit rate : 3 987 Kbps

Width : 1 280 pixels

Height : 720 pixels

Display aspect ratio : 16:9

Frame rate : 23.976 fps

Color space : YUV

Chroma subsampling : 4:2:0

Bit depth : 8 bits

Scan type : Progressive

Compression mode : Lossy

Bits/(Pixel*Frame) : 0.180

Stream size : 2.63 GiB (86)

Writing library : XviD 64


ID : 1

Format : AC-3

Format/Info : Audio Coding 3

Mode extension : CM (complete main)

Format settings, Endianness : Big

Codec ID : 2000

Duration : 1h 34mn

Bit rate mode : Constant

Bit rate : 640 Kbps

Channel(s) : 6 channels

Channel positions : Front: L C R, Side: L R, LFE

Sampling rate : 48.0 KHz

Bit depth : 16 bits

Compression mode : Lossy

Stream size : 432 MiB (14)

Alignment : Aligned on interleaves

Interleave, duration : 42 ms (1.00 video frame)

Interleave, preload duration : 512 ms


http://rapidgator.net/file/c89f4ec16543ffe76cb6d910cabdddae/Mass.Effect.Paragon.Lost.2012.720p.BDRip.XViD.AC3.LEGi0N.part1.rar.html

http://rapidgator.net/file/648737437334d908bf503978257c6e26/Mass.Effect.Paragon.Lost.2012.720p.BDRip.XViD.AC3.LEGi0N.part2.rar.html

http://rapidgator.net/file/852fcdc77bd27205bccb1a2ad6c87f15/Mass.Effect.Paragon.Lost.2012.720p.BDRip.XViD.AC3.LEGi0N.part3.rar.html

http://rapidgator.net/file/585950b9cbd752db63a43172ba19fb11/Mass.Effect.Paragon.Lost.2012.720p.BDRip.XViD.AC3.LEGi0N.part4.rar.html

Karateka (2012) - TiNYiSO

{ Posted: April 21st 2013 by Serve }
0 comments
Sections: Movies > Adventure     Tags: with,story,three,innovative,brave

Karateka (2012) - TiNYiSO


Karateka-TiNYiSO (PC/ENG/2012)

English | Platform: PC | Release: 30 December, 2012 | Publisher: D3 | Developer: Liquid Entertainment | 1.22 GB

Genre: Action / Fighting / Adventure (Fantasy)

From PRINCE OF PERSIA creator Jordan Mechner, the original side-scrolling karate classic comes to Steam with art by Jeff Matsuda (The Batman) and music by Grammy-winning composer Christopher Tin (CIVILIZATION IV).


Whether you are a nostalgic Karateka fan or new to the game, Karateka will charm you with its classic love story set in feudal Japan. Fight to save the lovely Mariko from the evil warlord Akuma and reunite her with her True Love.


Features


Rhythm-based combat mechanic. Easy to grasp yet challenging to master, the cinematic gameplay seamlessly blends a series of escalating karate battles with a simple human story.


Three playable characters. Three endings. Three suitors vie for Mariko's love: A fearsome Brute, a noble Monk, and her brave True Love.


Highly replayable. Innovative three suitors system offers a compact single-playthrough experience, yet challenges advanced players to unlock more difficult achievements and endings as their skill improves.


Unique real-time score by Christopher Tin tells the story through the music. Authentic Japanese instruments and themes let you "hear" the onscreen action in real time.


Burn/mount, install, copy crack, play


Note: use Launcher.exe for setting other languages than english


Screenshots


DOWNLOAD LINKS


http://uploaded.net/file/fbtmdd0t/Karateka-TiNYiSO.part1.rar

http://uploaded.net/file/kn9ezh7l/Karateka-TiNYiSO.part2.rar

http://uploaded.net/file/4fa25gnb/Karateka-TiNYiSO.part3.rar

http://uploaded.net/file/g1asroho/Karateka-TiNYiSO.part4.rar

http://uploaded.net/file/e9p1xa39/Karateka-TiNYiSO.part5.rar


http://www.secureupload.eu/teckg9mglnui/Karateka-TiNYiSO.part1.rar

http://www.secureupload.eu/5t41hbre0lz0/Karateka-TiNYiSO.part2.rar

http://www.secureupload.eu/xvu6tzuj1oko/Karateka-TiNYiSO.part3.rar

http://www.secureupload.eu/np25jbhe64xy/Karateka-TiNYiSO.part4.rar

http://www.secureupload.eu/ubjtqs1acu9v/Karateka-TiNYiSO.part5.rar

NL/EB/RG/UL]Silent Hill Revelation 2012 BRRip XviD AC3-SANTi

{ Posted: April 21st 2013 by Serve }
0 comments
Sections: Movies     Tags: rate,xvid,hill,size,2012

NL/EB/RG/UL]Silent Hill Revelation 2012 BRRip XviD AC3-SANTi


Silent Hill Revelation 2012 BRRip XviD AC3-SANTi


Information:


IMDB: http://www.imdb.com/title/tt0938330/

Source: 720p ALLIANCE

Subtitles: English


Format : AVI

Format/Info : Audio Video Interleave

File size : 1.43 GiB

Duration : 1h 34mn

Overall bit rate : 2 161 Kbps


ID : 0

Format : MPEG-4 Visual

Format profile : Advanced SimpleL5

Format settings, BVOP : 3

Format settings, QPel : No

Format settings, GMC : No warppoints

Format settings, Matrix : Default MPEG

Codec ID : XVID

Codec ID/Hint : XviD

Duration : 1h 34mn

Bit rate : 1 703 Kbps

Width : 720 pixels

Height : 304 pixels

Display aspect ratio : 2.35:1

Frame rate : 23.976 fps

Color space : YUV

Chroma subsampling : 4:2:0

Bit depth : 8 bits

Scan type : Progressive

Compression mode : Lossy

Bits/Pixel*Frame : 0.325

Stream size : 1.13 GiB 79

Writing library : XviD 1.2.1 UTC 2008-12-04


ID : 1

Format : AC-3

Format/Info : Audio Coding 3

Mode extension : CM complete main

Codec ID : 2000

Duration : 1h 34mn

Bit rate mode : Constant

Bit rate : 448 Kbps

Channels : 6 channels

Channel positions : Front: L C R, Side: L R, LFE

Sampling rate : 48.0 KHz

Bit depth : 16 bits

Compression mode : Lossy

Stream size : 304 MiB 21

Alignment : Split accross interleaves

Interleave, duration : 42 ms 1.00 video frame

Interleave, preload duration : 500 ms


Screens:


Extabit.com


http://extabit.com/file/29g1vta83y3r1/Silent.Hill.Revelation.2012.BRRip.XviD.AC3-SANTi.rar


http://extabit.com/file/29g1vta84l6x9/Silent.Hill.Revelation.2012.BRRip.XviD.AC3-SANTi.part1.rar

http://extabit.com/file/29g1vta84l6xp/Silent.Hill.Revelation.2012.BRRip.XviD.AC3-SANTi.part2.rar


Netload.in


http://netload.in/dateikArrOkcCSN/Silent.Hill.Revelation.2012.BRRip.XviD.AC3-SANTi.rar.htm


http://netload.in/datei6EocSqmbnc/Silent.Hill.Revelation.2012.BRRip.XviD.AC3-SANTi.part1.rar.htm

http://netload.in/dateie06KtyhwYw/Silent.Hill.Revelation.2012.BRRip.XviD.AC3-SANTi.part2.rar.htm


Uploaded.net


http://ul.to/ciidqfr8/Silent.Hill.Revelation.2012.BRRip.XviD.AC3-SANTi.rar


http://ul.to/z40o3zp9/Silent.Hill.Revelation.2012.BRRip.XviD.AC3-SANTi.part1.rar

http://ul.to/eu2ffe04/Silent.Hill.Revelation.2012.BRRip.XviD.AC3-SANTi.part2.rar


Rapidgator.net


http://rapidgator.net/file/75273684/Silent.Hill.Revelation.2012.BRRip.XviD.AC3-SANTi.rar.html


http://rapidgator.net/file/75273487/Silent.Hill.Revelation.2012.BRRip.XviD.AC3-SANTi.part1.rar.html

http://rapidgator.net/file/75273424/Silent.Hill.Revelation.2012.BRRip.XviD.AC3-SANTi.part2.rar.html

The Incredible Journey of the Monarch Butterfly 3D |

{ Posted: April 20th 2013 by Serve }
0 comments
Sections: Movies     Tags: incredible,monarch,2012,39mn,format

The Incredible Journey of the Monarch Butterfly 3D |


Format: AVC

Duration: 39mn 44

Bit rate: 18.9 Mbps

Maximum bit rate: 29.0 Mbps

Width: 1 920p

Height: 1 080p

Display aspect ratio: 16:9

Frame rate: 23.976 fps


Format: AC-3

Duration: 39mn 44Video flow s

Bit rate: 448 Kbps

Channel s: 6 channels

Channel positions: Front: L C R, Side: L R, LFE

Sampling rate: 48.0 KHz

BitDepth / String: 16 bits

Language: English


3d Format : OU


http://uploaded.net/file/wjx2hec4/The20Incredible20Journey20of20the20Monarch20Butterfly20-203D202820122920HSBS201080p.part4.rar

http://uploaded.net/file/203zkhmk/The20Incredible20Journey20of20the20Monarch20Butterfly20-203D202820122920HSBS201080p.part5.rar

http://uploaded.net/file/chxon632/The20Incredible20Journey20of20the20Monarch20Butterfly20-203D202820122920HSBS201080p.part6.rar

http://uploaded.net/file/fau959da/The20Incredible20Journey20of20the20Monarch20Butterfly20-203D202820122920HSBS201080p.part1.rar

http://uploaded.net/file/p4dm1qcj/The20Incredible20Journey20of20the20Monarch20Butterfly20-203D202820122920HSBS201080p.part2.rar

http://uploaded.net/file/lpgoezpf/The20Incredible20Journey20of20the20Monarch20Butterfly20-203D202820122920HSBS201080p.part3.rar


http://www.netload.in/dateiFDk1YtQzY6/The Incredible Journey of the Monarch Butterfly - 3D 2012 HSBS 1080p.part4.rar.htm

http://www.netload.in/dateid9DUjXUGko/The Incredible Journey of the Monarch Butterfly - 3D 2012 HSBS 1080p.part5.rar.htm

http://www.netload.in/dateii4jL8xDT8f/The Incredible Journey of the Monarch Butterfly - 3D 2012 HSBS 1080p.part6.rar.htm

http://www.netload.in/dateiTyCPSVy9bC/The Incredible Journey of the Monarch Butterfly - 3D 2012 HSBS 1080p.part3.rar.htm

http://www.netload.in/dateiBeHLIzHvkE/The Incredible Journey of the Monarch Butterfly - 3D 2012 HSBS 1080p.part2.rar.htm

http://www.netload.in/dateiz7JPlE8FjQ/The Incredible Journey of the Monarch Butterfly - 3D 2012 HSBS 1080p.part1.rar.htm

The Twilight Saga: Breaking Dawn - Part 2 (2012) m72

{ Posted: April 20th 2013 by Serve }
0 comments
Sections: Movies     Tags: twilight,part,breaking,english,password

The Twilight Saga: Breaking Dawn - Part 2 (2012) m72


The Twilight Saga: Breaking Dawn - Part 2 (2012) m720p BluRay DD5.1 x264-EPiK


RUNTiME: 1h 55mn

FilE SiZE: 2.00 GiB

ViDEO CODEC: x264, crf, HighL4.1

FRAMERATE: 23.976 fps

ViDEO BiTRATE: 1 997 Kbps

ASPECT RATiO: 2.40:1

RESOLUTiON: 1280x534

AUDiO : English AC-3 6ch 448 Kbps

SUBTiTLES: English , Vietnamese .srt

CHAPTER: Included

SOURCE: BluRay.1080p.AVC.DTS-HD.MA.7.1


RELEASE iNFO---------------------------


ENCODER: khoahoc0508 EPiK


NO PASSWORD | Interchangeable links


Screen


http://imgbox.com/adnVAyBx

http://imgbox.com/adbnt8Iq

http://imgbox.com/adimXi4x

http://imgbox.com/advNGPpi


lumfile


http://lumfile.com/8vq17ae2aily/The.Twilight.Saga.Breaking.Dawn.Part.2.2012.mHD.BluRay.DD5.1.x264-EPiK.part1.rar.html

http://lumfile.com/962qw0mu6kl9/The.Twilight.Saga.Breaking.Dawn.Part.2.2012.mHD.BluRay.DD5.1.x264-EPiK.part2.rar.html

http://lumfile.com/w63pe5bzdbkg/The.Twilight.Saga.Breaking.Dawn.Part.2.2012.mHD.BluRay.DD5.1.x264-EPiK.part3.rar.html


Ryushare


http://ryushare.com/1f038666ad10/The.Twilight.Saga.Breaking.Dawn.Part.2.2012.mHD.BluRay.DD5.1.x264-EPiK.part1.rar

http://ryushare.com/1fec5b0bc75c/The.Twilight.Saga.Breaking.Dawn.Part.2.2012.mHD.BluRay.DD5.1.x264-EPiK.part2.rar

http://ryushare.com/1d31dd1cdcfc/The.Twilight.Saga.Breaking.Dawn.Part.2.2012.mHD.BluRay.DD5.1.x264-EPiK.part3.rar


Uploaded


http://uploaded.net/file/fhpy05l5/The.Twilight.Saga.Breaking.Dawn.Part.2.2012.mHD.BluRay.DD5.1.x264-EPiK.part1.rar

http://uploaded.net/file/v251rkt2/The.Twilight.Saga.Breaking.Dawn.Part.2.2012.mHD.BluRay.DD5.1.x264-EPiK.part2.rar

http://uploaded.net/file/irsiv9i3/The.Twilight.Saga.Breaking.Dawn.Part.2.2012.mHD.BluRay.DD5.1.x264-EPiK.part3.rar


Enjoy

Alien 3 DvDrip XviD-giangmovies

{ Posted: April 20th 2013 by Serve }
0 comments
Sections: Movies > Action     Tags: alien,dvdrip,ripley,horrifying,rescued

Alien 3 DvDrip XviD-giangmovies


Alien 3 DvDrip-giangmovies


http://www.imdb.com/title/


MEDiA iNFO-----------------------------


FiLE NAME: Alien.31992DvDrip-giangmovies

RUNTiME: 1h 50mn

SiZE: 701 MiB

ViDEO CODEC: XviD, CRF, Advanced SimpleL5

FRAMERATE: 25.000 fps

BiTRATE: 767 Kbps

RESOLUTiON: 684x282 2.40:1

AUDiO: MPEG Audio Layer 32ch 112 Kbps

IMDB iNFO------------------------------


GENRE: Action | Sci-Fi | Thriller

iMDb RATiNG: 6,4

iMDb LiNK: http://www.imdb.com/title/tt0103644/


RELEASE iNFO---------------------------


RELEASE DATE: 1992

STORYLINE: After escaping from the alien planet, the ship carrying Ellen Ripley crashes onto a remote and inhabited ore refinery. While living in the ore refinery until she is rescued by her employers, Ripley discovers the horrifying reason for her crash: An alien stowaway. As the alien matures and begins to kill off the inhabitants, Ripley is unaware that her true enemy is more than just the killer alien.


Uploaded


http://uploaded.net/file/xiqbl3qw/Aliegh5B19925Dbn-giangmovies.rar


Rapidgator


http://www.keeplinks.me/d/mxyya3d6


Ryushare


http://www.keeplinks.me/d/ngtxem5j

Baby Looney Tunes Eggs Traordinary Adventure (200

{ Posted: April 19th 2013 by Serve }
0 comments
Sections: Movies > Adventure     Tags: looney,adventure,tunes,traordinary,baby

Baby Looney Tunes Eggs Traordinary Adventure (200


Baby Looney Tunes Eggs Traordinary Adventure (2003) DVDRip


http://www.imdb.com/title/tt0381896/


ReLeAsE I N F O :


Baby Looney Tunes: Eggs-traordinary Adventure 2003

Language : English


File: Baby Looney Tunes Eggs Traordinary Adventure 2003.avi

Size: 474523741 bytes 452.54 MiB, duration: 00:58:59, avg.bitrate: 1073 kb/s

Audio: mp3, 48000 Hz, stereo, 128 kb/s

Video: mpeg4, yuv420p, 640x480, 23.98 fpsr


The Baby Looney Tunes characters go on a search for the true meaning of Easter.


S C R E E N s :


D o w n l o a D L i n k S :


RapidGator


http://rapidgator.net/file/0b2d49bd24e0318e70b457f7fda2f075/BabyLooneyTunesEggsTraordinaryAdventure2003DVDRip.rar.html


LumFile


http://lumfile.com/yzxxury92mxw/BabyLooneyTunesEggsTraordinaryAdventure2003DVDRip.rar.html


Extabit


http://extabit.com/file/27t0nrsqa73c4/BabyLooneyTunesEggsTraordinaryAdventure2003DVDRip.rar

Lebanon (2009) LiMiTED DVDRiP XviD Ouzo

{ Posted: April 19th 2013 by Serve }
0 comments
Sections: Movies     Tags: rate,xvid,size,library,limited

Lebanon (2009) LiMiTED DVDRiP XviD Ouzo


Lebanon (2009) LiMiTED DVDRiP XviD Ouzo


http://www.imdb.com/title/tt1483831


General

Complete name : Lebanon.2009.LiMiTED.DVDRiP.XviD-Ouzoouzo.lebanon.avi

Format : AVI

Format/Info : Audio Video Interleave

File size : 695 MiB

Duration : 1h 29mn

Overall bit rate mode : Variable

Overall bit rate : 1 086 Kbps

Writing application : VirtualDubMod 1.5.10.2 (build 2540/release)

Writing library : VirtualDubMod build 2540/release


ID : 0

Format : MPEG-4 Visual

Format profile : Advanced SimpleL5

Format settings, BVOP : 2

Format settings, QPel : No

Format settings, GMC : No warppoints

Format settings, Matrix : Default (H.263)

Codec ID : XVID

Codec ID/Hint : XviD

Duration : 1h 29mn

Bit rate : 946 Kbps

Width : 592 pixels

Height : 320 pixels

Display aspect ratio : 1.85:1

Frame rate : 25.000 fps

Color space : YUV

Chroma subsampling : 4:2:0

Bit depth : 8 bits

Scan type : Progressive

Compression mode : Lossy

Bits/(Pixel*Frame) : 0.200

Stream size : 605 MiB (87)

Writing library : XviD 1.2.1 (UTC 2008-12-04)


ID : 1

Format : MPEG Audio

Format version : Version 1

Format profile : Layer 3

Mode : Joint stereo

Mode extension : MS Stereo

Codec ID : 55

Codec ID/Hint : MP3

Duration : 1h 29mn

Bit rate mode : Variable

Bit rate : 128 Kbps

Channel(s) : 2 channels

Sampling rate : 48.0 KHz

Compression mode : Lossy

Stream size : 81.2 MiB (12)

Alignment : Aligned on interleaves

Interleave, duration : 24 ms (0.60 video frame)

Interleave, preload duration : 145 ms

Writing library : LAME3.90.

Encoding settings : -m j -V 4 -q 2 -lowpass 17.6 --abr 128


http://rapidgator.net/file/9473c4043358300c0dc1e6ae5ad109d4/Lebanon.2009.LiMiTED.DVDRiP.XviD.Ouzo.rar.html

Tinker Bell and the Lost Treasure (2009) DVDRiP XViD BU

{ Posted: April 19th 2013 by Serve }
0 comments
Sections: Movies     Tags: rate,size,library,lost,dvdrip

Tinker Bell and the Lost Treasure (2009) DVDRiP XViD BU


Tinker Bell and the Lost Treasure (2009) DVDRiP XViD BULLDOZER


http://www.imdb.com/title/tt1216516


General

Complete name : Tinker.Bell.And.The.Lost.Treasure.DVDRiP.XViD-BULLDOZERbdz.tbitlt.avi

Format : AVI

Format/Info : Audio Video Interleave

File size : 701 MiB

Duration : 1h 20mn

Overall bit rate mode : Variable

Overall bit rate : 1 220 Kbps

Writing application : Nandub v1.0rc2

Writing library : Nandub build 1852/release


ID : 0

Format : MPEG-4 Visual

Format profile : Advanced SimpleL5

Format settings, BVOP : 2

Format settings, QPel : No

Format settings, GMC : No warppoints

Format settings, Matrix : Default (H.263)

Codec ID : XVID

Codec ID/Hint : XviD

Duration : 1h 20mn

Bit rate : 1 079 Kbps

Width : 640 pixels

Height : 352 pixels

Display aspect ratio : 16:9

Frame rate : 23.976 fps

Color space : YUV

Chroma subsampling : 4:2:0

Bit depth : 8 bits

Scan type : Progressive

Compression mode : Lossy

Bits/(Pixel*Frame) : 0.200

Stream size : 619 MiB (88)

Writing library : XviD 0039 build2005.09.16 (UTC 2005-09-16)


ID : 1

Format : MPEG Audio

Format version : Version 1

Format profile : Layer 3

Mode : Joint stereo

Mode extension : MS Stereo

Codec ID : 55

Codec ID/Hint : MP3

Duration : 1h 20mn

Source duration : 1h 20mn

Bit rate mode : Variable

Bit rate : 128 Kbps

Channel(s) : 2 channels

Sampling rate : 48.0 KHz

Compression mode : Lossy

Delay relative to video : 672ms

Stream size : 74.1 MiB (11)

Alignment : Split accross interleaves

Interleave, duration : 24 ms (0.58 video frame)

Interleave, preload duration : 1429 ms

Writing library : LAME3.90.


http://rapidgator.net/file/1848b85d0e0c60fcb19561796686c454/Tinker.Bell.And.The.Lost.Treasure.DVDRiP.XViD.BULLDOZER.rar.html

Disney Princess My Fairytale Adventure - RELOADED

{ Posted: April 19th 2013 by Serve }
0 comments
Sections: Movies > Adventure     Tags: spell,their,kingdom,worlds,fairytale

Disney Princess My Fairytale Adventure - RELOADED


Disney Princess My Fairytale Adventure-RELOADED

Publisher: Disney Interactive Studios

Release Date: 30.10.2012

Language: English

Platform: PC

Genre: Adventure

In Disney Princess: My Fairytale Adventure, players will find that a spell has been cast over the beloved Princess worlds and will need to use their magic wand to help Cinderella, Rapunzel, Ariel, Belle and Tiana restore peace and bring happily ever after back to each kingdom. In the role of an apprentice to the Fairy Godmother, you have accidentally set off a series of events that cause friendly Sprites to transform into mischievous Imps. The evil Imps make their way into the worlds of Tangled, The Princess and the Frog, Beauty The Beast, The Little Mermaid, and Cinderella. Pursue the Imps into each Princess kingdom to prevent them from causing any harm. Undo the spell by completing quests and playing a variety of dancing, gardening, and decorating games. Go kingdom to kingdom undoing any trouble the little Imps created as well as freeing the Imps from the spell and returning them to their Sprite form so that they can return return to their rightful home in the Magical Kingdom.


Release Date: 30.10.2012

In Disney Princess: My Fairytale Adventure, players will find that a spell has been cast over the beloved Princess worlds and will need to use their magic wand to help Cinderella, Rapunzel, Ariel, Belle and Tiana restore peace and bring ?happily ever afterback to each kingdom. In the role of an apprentice to the Fairy Godmother, you have accidentally set off a series of events that cause friendly Sprites to transform into mischievous Imps. The evil Imps make their way into the worlds of Tangled, The Princess and the Frog, Beauty The Beast, The Little Mermaid, and Cinderella. Pursue the Imps into each Princess kingdom to prevent them from causing any harm. Undo the spell by completing quests and playing a variety of dancing, gardening, and decorating games. Go kingdom to kingdom undoing any trouble the little Imps created as well as freeing the Imps from the spell and returning them to their Sprite form so that they can return return to their rightful home in the Magical Kingdom.

Customize your avatar, outfits, accessories, castle and more

Explore worlds of Cinderella, Ariel, Belle, Tiana and Rapunzel

Collect gems, flower seeds and jewelry

Play a variety of dancing, gardening and decorating games

1. Unrar

2. Burn or mount the image

3. Install the game

4. Copy over the cracked content found in the Crack directory on the DVD

to where you installed the game, overwriting the existing file

5. Play the game

6. Support the software developers.


DOWNLOAD LINKS


http://uploaded.net/file/p6m0na51/Disney.Princess.My.Fairytale.AdventureRELOADED.part1.rar

http://uploaded.net/file/7rjxk39u/Disney.Princess.My.Fairytale.AdventureRELOADED.part2.rar

http://uploaded.net/file/rbovas84/Disney.Princess.My.Fairytale.AdventureRELOADED.part3.rar

http://uploaded.net/file/w4hftzol/Disney.Princess.My.Fairytale.AdventureRELOADED.part4.rar

The ABCs Of Death 2012 LIMITED 720p BluRay DTS x264-

{ Posted: April 19th 2013 by Serve }
0 comments
Sections: Movies > Horror     Tags: abcs,death,bluray,limited,brutal

The ABCs Of Death 2012 LIMITED 720p BluRay DTS x264-


The ABCs Of Death 2012 LIMITED 720p BluRay DTS x264-PHD


The ABCs of Death (2012)

Genre: Horror

Directed By: Kaare Andrews, Angela Bettis

Cast: Ingrid Bols Berdal, Erik Aude, Kyra Zagorsky

Country: USA, New Zealand

Original Language: English

Storyline: A 26-chapter anthology that showcases death in all its vicious wonder and brutal beauty.

5.1/102,759 votes


http://www.imdb.com/title/tt1935896/


File: the.abcs.of.death.2012.limited.720p.bluray.dts.x264-phd.mkv

Size: 5861206123 bytes (5.46 GiB), duration: 02:09:17, avg.bitrate: 6045 kb/s

Audio: dts, 48000 Hz, 5:1 (eng)

Video: h264, yuv420p, 1280x720, 24.00 fps(r) (eng)


Screens


Download


http://ultramegabit.com/file/details/N5C-JZdPDE

http://ultramegabit.com/file/details/1W5zNT6na10

http://ultramegabit.com/file/details/bQt5Rc1i2QM

http://ultramegabit.com/file/details/NyKkP7fYWgU

http://ultramegabit.com/file/details/1QpNn66WOQ

http://ultramegabit.com/file/details/Xbryc9NJDlM


http://ul.to/rwn4djlr

http://ul.to/z1elefdd

http://ul.to/xrckh7ps

http://ul.to/666qzdv0

http://ul.to/1alzc7ue

http://ul.to/yb9h1m3d

Here Comes the Boom (2012) 720p BrRip x264 - YIFY

{ Posted: April 19th 2013 by Serve }
0 comments
Sections: Movies     Tags: rate,date,x264,boom,720p

Here Comes the Boom (2012) 720p BrRip x264 - YIFY


Here Comes the Boom (2012) 720p BrRip x264 - YIFY


General

Complete name : Here Comes the Boom 2012 720p BrRip x264 - YIFYHere Comes the Boom 2012Here.Comes.the.Boom.2012.720p.BluRay.x264.YIFY.mp4

Format : MPEG-4

Format profile : Base Media

Codec ID : isom

File size : 701 MiB

Duration : 1h 44mn

Overall bit rate mode : Variable

Overall bit rate : 935 Kbps

Encoded date : UTC 2013-01-21 08:37:07

Tagged date : UTC 2013-01-21 08:37:07


ID : 1

Format : AVC

Format/Info : Advanced Video Codec

Format profile : HighL4.0

Format settings, CABAC : Yes

Format settings, ReFrames : 7 frames

Codec ID : avc1

Codec ID/Info : Advanced Video Coding

Duration : 1h 44mn

Bit rate : 835 Kbps

Maximum bit rate : 4 375 Kbps

Width : 1 280 pixels

Height : 688 pixels

Display aspect ratio : 1.85:1

Frame rate mode : Constant

Frame rate : 23.976 fps

Color space : YUV

Chroma subsampling : 4:2:0

Bit depth : 8 bits

Scan type : Progressive

Bits/Pixel*Frame : 0.040

Stream size : 626 MiB 89

Writing library : x264 core 129 r2230 1cffe9f

Encoding settings : cabac1 / ref8 / deblock1:0:0 / analyse0x3:0x133 / meumh / subme9 / psy1 / psyrd1.00:0.00 / mixedref1 / merange16 / chromame1 / trellis2 / 8x8dct1 / cqm0 / deadzone21,11 / fastpskip1 / chromaqpoffset-2 / threads12 / lookaheadthreads2 / slicedthreads0 / nr0 / decimate1 / interlaced0 / bluraycompat0 / constrainedintra0 / bframes3 / bpyramid1 / badapt2 / bbias0 / direct3 / weightb1 / opengop0 / weightp2 / keyint240 / keyintmin23 / scenecut40 / intrarefresh0 / rclookahead60 / rc2pass / mbtree1 / bitrate835 / ratetol1.0 / qcomp0.60 / qpmin10 / qpmax51 / qpstep4 / cplxblur20.0 / qblur0.5 / ipratio1.40 / aq1:1.00

Encoded date : UTC 2013-01-21 08:37:07

Tagged date : UTC 2013-01-21 08:37:18


ID : 2

Format : AAC

Format/Info : Advanced Audio Codec

Format profile : LC

Codec ID : 40

Duration : 1h 44mn

Bit rate mode : Variable

Bit rate : 96.0 Kbps

Maximum bit rate : 127 Kbps

Channels : 2 channels

Channel positions : Front: L R

Sampling rate : 48.0 KHz

Compression mode : Lossy

Stream size : 72.0 MiB 10

Language : English

Encoded date : UTC 2013-01-21 08:37:17

Tagged date : UTC 2013-01-21 08:37:18


http://uploaded.net/file/2ldp6rrb/Here Comes the Boom 2012 720p BrRip x264 - YIFY.rar


http://rapidgator.net/file/80604656/HereComestheBoom2012720pBrRipx264-YIFY.rar.html

Oz Pearlman - Born to Perform Card Magic

{ Posted: April 18th 2013 by Serve }
0 comments
Sections: Movies     Tags: rate,pearlman,card,perform,born

Oz Pearlman - Born to Perform Card Magic


Oz Pearlman - Born to Perform Card Magic


all dead links removed

11:08 06/09/2012


General

Complete name : Oz.Pearlman.Born.To.Perform.Magic.DVDRip.XViD.Upload3r.avi

Format : AVI

Format/Info : Audio Video Interleave

File size : 698 MiB

Duration : 1h 44mn

Overall bit rate : 936 Kbps


Format : MPEG-4 Visual

Format settings, BVOP : 1

Codec ID : DX50

Codec ID/Hint : DivX 5

Duration : 1h 44mn

Bit rate : 828 Kbps

Width : 512 pixels

Height : 368 pixels

Display aspect ratio : 1.391

Frame rate : 29.970 fps

Bit depth : 8 bits

Stream size : 617 MiB 89

Writing library : DivX 5.1.1 Maupiti UTC 2003-11-19


Format : MPEG Audio

Format version : Version 1

Format profile : Layer 3

Duration : 1h 44mn

Bit rate mode : Constant

Bit rate : 96.0 Kbps

Channels : 2 channels

Sampling rate : 44.1 KHz

Stream size : 71.6 MiB 10

Writing library : LAME3.92


Learning card magic is like building a house. Everything starts with a strong foundation of basic building blocks.


This DVD will start you at the beginning of card magic and take you to a working professional?s level. You'll progress faster than ever before by focusing on the most powerful moves. This is a complete course in card magic without the filler. There's no reason to spend hundreds of dollars buying a set of 3 or 8 or 10 DVDs when you can learn the core skills the ones that get used over and over again in thousands of tricks on one DVD. This is that DVD.


By the time you're finished you?ll have learned 4 full-length routines--including the Ambitious Card. You'll have mastered the fundamentals, learned seven of the most powerful and practical controls including the Classic Pass, developed two high-powered forces and picked up eight ultra-visual flourishes.


More Info At:


http://www.penguinmagic.com/product.php?ID618


Download:

FileFlyer:


https://safelinking.net/d/d2c9fd718e/JXSOS9U9NUBUCQ


Megashares:


https://safelinking.net/d/a940f80448/Oz.Pearlman.Born.To.Perform.Magic.DVDRip.XViD.Upload3r.avi


RapidGator:


https://safelinking.net/d/e6460f5dfa/Oz.Pearlman.Born.To.Perform.Magic.DVDRip.XViD.Upload3r.avi.html


https://safelinking.net/d/ca8c8bc39a/oz-pearlman-born-to-perform-magic-dvdrip-xvid-upload3r-avi


Netload:


https://safelinking.net/d/c370ebef76/Oz.Pearlman.Born.To.Perform.Magic.DVDRip.XViD.Upload3r.avi.htm


Extabit:


https://safelinking.net/d/9a8f147594/29hc1o9z9uuzr

Sensored.2009.1080p.BluRay.x264-VETO

{ Posted: April 18th 2013 by Serve }
0 comments
Sections: Movies > Drama     Tags: 1920

Sensored.2009.1080p.BluRay.x264-VETO


Sensored.2009.1080p.BluRay.x264-VETO PublicHD


http://www.imdb.com/title/tt1204966/

GENRE : Drama, Horror, Thriller

RUNTIME : 90 min

RESOLUTION : 1920 x 1080

VIDEO : 8969kbps

AUDIO : EN DTS 1510kbps


Rapidgrator


http://www.keeplinks.me/d/bwo0mxzu

http://www.keeplinks.me/d/ndzwatz3

http://www.keeplinks.me/d/ntkydjy5

http://www.keeplinks.me/d/bmrlmgx6

http://www.keeplinks.me/d/oxiwm2k0

http://www.keeplinks.me/d/dxk3zm5x

http://www.keeplinks.me/d/c2htohbq

http://www.keeplinks.me/d/dmxqbjzm


Uploaded


http://www.keeplinks.me/d/dta4njh6

http://www.keeplinks.me/d/zmdqetm5

http://www.keeplinks.me/d/ddqyytvk

http://www.keeplinks.me/d/agc5mmzv

http://www.keeplinks.me/d/czy5cwn2

http://www.keeplinks.me/d/bjdhbhez

http://www.keeplinks.me/d/yny5bgsz

http://www.keeplinks.me/d/azn4zdr0


BillionUploads


http://www.keeplinks.me/d/ohg0mxzu

http://www.keeplinks.me/d/ehlwcnd1

http://www.keeplinks.me/d/btb2a2w5

http://www.keeplinks.me/d/zzftzwrs

http://www.keeplinks.me/d/mwtqd2dt

http://www.keeplinks.me/d/bzfvywvh

http://www.keeplinks.me/d/bzj6m2ps

http://www.keeplinks.me/d/bndiodzu


<